Нижегородский файловый портал
RSS - каналы
Главное меню
Категории каталога
Мои статьи [5]
Школа покера [5]
Софт [40]
Радиолюбителям и электрикам [8]
Интернет [167]
Система [89]
Комплектующие ПК [47]
Безопасность [56]
Программирование [18]
Веб-дизайнеру [5]
Игры [6]
Полезные советы [24]
Кулинария [1]
Телефония [10]
Мобильник [17]
Планшеты [14]
Медицина [5]
Работа [4]
Домашнему мастеру [0]
Строительство и ремонт [19]
Для сада и огорода [2]
Юмор и приколы [12]
Интересное [114]
Пластики [3]
Разное [238]
Мини-чат
Правила мини-чата



Мини-чат в окне
Погода в Нижнем
Яндекс.Погода
Главная » Статьи » Софт

Lossless форматы и как с ними работать
В статье рассматриваются следующие вопросы:

1) Что такое lossless?
2) Что такое CUE?
3) Чем можно проиграть lossless форматы?
4) А можно ли проигрывать lossless моим Winamp'ом (Windows Media Player и др.)
5) Что мне делать с этим одним большим файлом?
6) Открываю альбом через CUE и вижу пустой плейлист. Что делать?
7) Как мне конвертировать lossless в MP3 (для прослушивания на плеере)?
8) Что такое транскод?


Целью статьи было создать материал, который облегчит новичкам процесс знакомства с lossless и упростит пользование им.


1) Что такое lossless?

Lossless - это кодирование данных без потерь (беспотерьное сжатие). Разумеется, речь идет о кодировании музыки (цифрового звука). Сжатие без потерь можно хорошо понять, если рассмотреть пример работы обычных и всем привычных архиваторов (WinZIP, WinRAR и т.д.). Мы берем, скажем, текстовый файл и архивируем его. Получаем в разы меньший архив с документом. Распаковав его мы будем иметь в точности такой же документ. Тоже самое и с беспотерьным сжатием звука. Мы сжимаем обычный WAV файл lossless кодеком и получаем меньший по объему файл. Из него мы всегда можем получить обратно наш WAV в первозданном виде и записать, скажем, диск в точности в том виде, в котором он был куплен в магазине. Подобных кодеков довольно много. Наиболее популярными являются APE (Monkey's Audio), FLAC (Free Lossless Audio Codec), WavPack. Все эти кодеки имеют компрессию в районе 30-50%. Но хочу заметить, что нам не обязательно перегонять все в WAV. Мы можем слушать эти сжатые файлы совершенно спокойно на нашем компьютере. Об этом поговорим ниже...

2) Что такое CUE?

CUE (Cuesheet) - это индексный файл в котором идет разметка по трекам. Дело в том, что перегнав наш WAV в один из lossless форматов мы получаем один цельный и непрерывный файл. Чтобы в нем можно было ориентироваться и перепрыгивать с трека на трек используются CUE файлы. Данные файлы имеют расширение .cue. Его структура очень проста. Приведу небольшой пример:

PERFORMER "Rise Against"
TITLE "Appeal To Reason"
FILE "RA-ATR.flac" WAVE
TRACK 01 AUDIO
TITLE "Collapse (Post-Amerika)"
PERFORMER "Rise Against"
INDEX 01 03:21:00
TRACK 02 AUDIO
TITLE "Long Forgotten Sons"
PERFORMER "Rise Against"
INDEX 01 04:03:00
TRACK 03 AUDIO
TITLE "Re-Education (Through Labor)"
PERFORMER "Rise Against"
INDEX 01 03:44:00

Как видно из примера, в начале идет данные о самом диске (исполнитель, альбом). Далее идет строка FILE, в которой указывается собственно файл, который был индексирован. И затем идет уже индекс треков (номер трека, название трека и начало время звучания).

3) Чем можно проиграть lossless форматы?

Конечно, плееров великое множество. Я бы хотел остановиться на довольно простом и в то же время очень функциональном плеере - Foobar2000. У данного плеера очень много версий и сборок. Я перепробовал довольно большое количество этих вариаций. Остановился я на сборке от Dr.Death  (скачать).

Дело в том, что в этой сборке собраны все необходимые нам плагины и кодеки. Так что нам не придется что-то искать и докачивать. Так сказать, готовый продукт. Также он немного приукрашен и не имеет столь скудный дизайн, как оригинальный Foobar. Ну это все плюшечки и фишечки и нас это мало интересует.

Итак, скачав архив, распаковываем его и запускаем файл foobar2000.exe (никакой установки не требуется). Посмотрите, познакомьтесь с плеером. Замечание: в архиве есть замечательный файлик readme.chm с руководством по настройке плеера под себя. Там рассматривается настройка технической части и настройка кнопок и других красивостей.

Для начала первым делом идем в File >>> Preferences >>> File Types


Здесь выбирайте, те форматы, которые будут проигрываться Foobar'ом. Если будете использовать только для lossless, то отмечайте APE, FLAC, WV, также не забудьте отметить CUE.

Таким образом мы ассоциировали нужные нам файлы с Foobar и теперь после двойного клика на отмеченных вами выше форматах они будут проигрываться в плеере Foobar

4) А можно ли проигрывать lossless моим Winamp'ом (Windows Media Player и др.)?

Конечно, никто не заставляет использовать Foobar. Его я рассмотрел, как довольно простой способ проигрывания. Также мы можем воспользоваться привычными нам плеерами. Например, Winamp.

Для проигрывания нужно установить сами кодеки в систему. Приведу ссылки на установку наиболее популярных кодеков:

1) http://www.monkeysaudio.com/download.html - Monkey's Audio (APE)
В комплекте идет плагин к Winamp'у, который устанавливается вместе с кодеком.

2) http://flac.sourceforge.net/download.html - Free Lossless Audio Codec (FLAC)
Прямая ссылка на установку для Windows: http://cyberial.com/flacinstaller.asp
В комплект тоже входит плагин для Winamp

3) http://www.wavpack.com/downloads.html - WavPack (WV)
Кодек и плагины ставятся отдельно. Доступны плагины для Winamp, Apollo, XMMS, Nero Burning Rom.

4) http://homepage3.nifty.com/blacksword/ - OGG Vorbis
Tут есть несколько вариантов аналогично LAME. Я рекомендую использовать сборку под названием Lancer, т.к. по мимо прочего она еще и оптимизирована под разные процессоры.

5) http://www.musepack.net/index.php?pg=win – MusePack
Tут все просто, он лежит на официальном сайте в виндовом разделе "Encoder”

6) http://www.nero.com/nerodigital/eng/down-ndaudio.php - MP4 (Nero): (имеется в виду формат AAC).
B архиве папка win32, вней файл NeroAacEnc.exe.


5) Что мне делать с этим одним большим файлом?

Как правило, музыка в lossless распространяется в составе двух файлов. Первый - это сама музыка в одном из форматов в виде одного целого непрерывного файла. Второй - это CUE файл (про CUE см. пункт 2).

Для того, чтобы мы могли нормально слушать альбом, переключаясь между треками в комплекте должен идти CUE файл. Плеер Foobar позволяет проигрывать связку Файл+CUE. В таком случае в плейлисте сразу отображается список треков без физического разрезания цельного файла.

Также есть специальный плагин для Winamp, чтобы научить его работать с CUE. Берем здесь.

6) Открываю альбом через CUE и вижу пустой плейлист. Что делать?

Такая проблема часто возникает при работе через CUE. Это связано с тем, что CUE файл ссылается не на тот исходный звуковой файл. Скорее всего CUE ссылается на файл с раширением WAV, а у нас, например, APE. Это связано с тем, что изначально (при создании образа) CUE создается именно для WAV файла, который потом конвертируется в lossless и многие просто не утруждают себя переправить CUE.

Разберемся, как нам это исправить:

1) Откроем CUE в любом текстовом редакторе. Например, в обычном Блокноте (Notepad)
2) Мы увидим сам код CUE файла, который нам нужно немного подправить.

PERFORMER "Rise Against"
TITLE "Appeal To Reason"
FILE "RA-ATR.wav" WAVE
TRACK 01 AUDIO
TITLE "Collapse (Post-Amerika)"
PERFORMER "Rise Against"
INDEX 01 03:21:00
TRACK 02 AUDIO
TITLE " Long Forgotten Sons "
PERFORMER "Rise Against"
INDEX 01 04:01:00

3) Найдем строку, начинающуюся со слова FILE. Именно в ней содержится ссылка на исходный звуковой файл.

FILE "RA-ATR.wav" WAVE

Мы видим, что файл имеет расширение wav, а мой исходный файл, например, в APE. Смотрим в каком формате наш исходный файл и меняем расширение на нужное нам (ape, flac, wv). Получаем строку вида:

FILE " RA-ATR.ape" WAVE

5) Сохраняем наш файл и запускаем его в плеере. Теперь список должен корректно отобразиться.


7) Как мне конвертировать lossless в MP3 (для прослушивания на плеере)?

Этот вопрос тоже очень часто возникает. Конечно, нам хочется послушать музыку и на улице, но на сегодняшний день существует не так много плееров, которые проигрывают lossless. Есть варианты перепрошить свой плеер, но это отдельная тема.

Способов конвертации множество. Можно использовать программы-конвертеры. Я предпочитаю пользоваться опять же Foobar'ом. Плюсов здесь несколько:

+ Не нужен дополнительный софт
+ Мы сами добавляем нужные форматы (если их не оказалось по-умолчанию)
+ Одновременно мы разрезаем наш большой файл по трекам

Итак, начнем.

1) Загрузим наш альбом в плейлист, используя CUE файл.
2) Выделим все треки из списка.
3) Нажмем правой кнопкой мыши на выделенных треках и выберем
Convert >>> Convert to...



4) Выберем необходимый формат (в нашем случае это MP3).

Перед тем, как нажать на ОК, нам необходимо скачать сам кодек для конвертации в MP3. Мы будем использовать Lame 3.97 (скачать можно
тут). Распакуем и запомним куда положили.

После нажатия ОК плеер попросит указать папку, где находится lame.exe, что мы и делаем.


Затем мы указываем место сохранения файлов и все, конвертация пошла.


Замечание: В списке по-умолчанию доступен только один вариант конвертации в MP3 (avg 245 kbps с JointStereo). Этого вообщем-то достаточно. Если же вам недостаточно, то вы можете добавить свой вариант битрейта и стерео. Для этого зайдите в окне конвертации в MoreSettings и выберете AddNew. Далее в списке выберете Custom и вбейте свои значения:


На скриншоте представлены настройки MP3 320 kbps c "полным" Stereo (--cbr -b 320 -m s - %d)

8) Что такое транскод?

Транскод - формат звукового сопровождения. Есть люди, которые через Audio CD из MP3 делают рип через EAC (Exact Audio Copy, подробнее на официальном сайте EAC) в Lossless. Транскод можно несложно распознать по спектру. Он является DTS lossy форматом, т.е. с потерями. Конвертировать можно программой dBpowerAMP Music Converter. Загребаем тут: http://www.dbpoweramp.com/dmc.htm

Как работать с программами EAC и dBpowerAMP Music Converter довольно подробно объяснено на их официальных сайтах.
По материалам сайта www.respecta.net
Добавил: Админ-21NN | Просмотров: 3437 | Рейтинг: 5.0/2


Обратите Ваше внимание на другие статьи:

Уважаемые пользователи, пожалуйста, оставляйте комментарии! Нам очень важно Ваше мнение!
Всего комментариев: 0
Добавлять комментарии могут только зарегистрированные пользователи.

    
Меню пользователя
Аватар гостя

Приветствуем Вас, Гость

Логин:
Пароль:
Поиск по сайту
Поиск по названию
Поиск по тегам
Горячие темы форума
Зарабатываем деньги
Детская игра Подарки...
Тест скорости подклю...
кое что о Windows
Кто ты, человек?
Новая валюта портала
Все о сексе
"Что мешает нам...
Культура
Афоризмы
Лучшие 13 анекдотов ...
как защитить свой ко...
поговорим о софте
восстановление данны...
Я ненавижу Дом-2
Волга-Телеком
Кулинария "Кокт...
Стол заказов
Жалобы
С Днем Победы!!!
Прикольные картинки
С праздником Пасхи !...
Статистика
Новых за месяц: 137
Новых за неделю: 44
Новых вчера: 6
Новых сегодня: 3
Всего: 5378
Из них:
Администраторов: 3
$$$-Модераторов: 1
Модераторов: 3
Прокураторов: 3
-----------------
далее:
Проверенных: 247
Пользователей: 2885
Новичков: 1943
Заблокированных: 100
-----------------
Из всех пользователей:
Мужчин и парней: 4213
Женщин и девушек: 1164
Именинники
Поздравляем с Днем рожденья:

Dmitry2009(40), gibrid(82), Батарейкин(27), Reanimator911(27), FAZA-NN(23), John777_61(56), Pavka(36), axbyc(42), ВикторияWW(29)
Режим ON-LINE
Онлайн всего: 9
Гостей: 9
Пользователей: 0

Сейчас на портале:
Наша кнопочка
Нижегородский файловый портал

HTML-код кнопки:
Реклама
Размещение рекламы

Яндекс.Метрика
Регистрация сайта в каталогах, раскрутка и оптимизация сайта, контекстная реклама Ремонт холодильников в Нижнем Новгороде

Copyright © BankRemStroy © 2009-2017